#TITLE:All About Us;
#SUBTITLE:;
#ARTIST:T.A.T.U;
#TITLETRANSLIT:All About Us;
#SUBTITLETRANSLIT:;
#ARTISTTRANSLIT:T.A.T.U;
#CREDIT:;
#BANNER:All About Us-bn.png;
#BACKGROUND:All About Us-bg.png;
#LYRICSPATH:;
#CDTITLE:pm4cd.png;
#MUSIC:All About Us.mp3;
#OFFSET:0.020;
#SAMPLESTART:28.670;
#SAMPLELENGTH:20.000;
#SELECTABLE:YES;
#BPMS:0.000=162.070;
#STOPS:;
#BGCHANGES:;
// cache tags:
#FIRSTBEAT:15.750;
#LASTBEAT:479.250;
#SONGFILENAME:Songs/Music V.I.P ^_^/All About Us/All About Us.sm;
#HASMUSIC:1;
#HASBANNER:1;
#MUSICLENGTH:182.704;
// end cache tags

//---------------dance-single - ----------------
#NOTES:
     dance-single:
     :
     Hard:
     11:
     0.950,0.984,1.000,0.788,1.000,577.000,442.000,144.000,0.000,139.000:
0000
0000
0000
0000
,
0000
0000
0000
0000
,
0000
0000
0000
0000
,
0000
0000
0000
0000
0000
0000
0000
0000
0000
0000
0000
0000
0000
0000
0000
1000
,
0000
0001
0000
1000
0000
0001
0000
0200
0000
0000
0000
0000
0000
0300
0000
0001
,
0000
1000
0000
0001
0000
1000
0000
0020
0000
0000
0000
0000
0000
0030
0000
0010
,
0000
0100
0000
0010
0000
0100
0000
0200
0000
0000
0000
0000
0000
0300
0000
0100
,
0000
0010
0000
0100
0000
0010
0000
0020
0000
0000
0000
0000
0000
0030
0000
1000
,
0000
1000
0000
1000
0000
1000
0000
0200
0000
0000
0000
0000
0000
0300
0000
0001
,
0000
0001
0000
0001
0000
0001
0000
0020
0000
0000
0000
0000
0000
0030
0000
0100
,
0000
0100
0000
0100
0000
0100
0000
0002
0000
0000
0000
0000
0000
0003
0000
0010
,
0000
0010
0000
0010
0000
0010
0000
2000
0000
0000
0000
0000
0000
3000
0000
1100
,
0000
0011
0000
1100
0000
0011
0000
0220
0000
0000
0000
0000
0000
0330
0000
0011
,
0000
1100
0000
0011
0000
1100
0000
0220
0000
0000
0000
0000
0000
0330
0000
1010
,
0000
0101
0000
1010
0000
0101
0000
0220
0000
0000
0000
0000
0000
0330
0000
0101
,
0000
1010
0000
0101
0000
1010
0000
0220
0000
0000
0000
0000
0000
0330
0000
1100
,
0000
1100
0000
1100
0000
1100
0000
0022
0000
0000
0000
0000
0000
0033
0000
0011
,
0000
0011
0000
0011
0000
0011
0000
2000
0000
0000
0000
0100
0010
3001
0000
0011
,
0000
0101
0000
2002
0000
0000
0000
0000
0000
3003
0000
1100
0000
1010
0000
2002
,
0000
0000
0000
0000
0000
3003
0000
1001
0000
0110
0000
1001
0000
0000
0000
1001
,
0000
0000
0000
0110
0000
0101
0000
1100
0000
2010
0000
0000
0000
0000
0000
3110
,
0000
1010
0000
0011
0000
0000
0000
1010
0000
1100
0000
1001
0000
0000
0000
1001
,
0000
0000
0000
0011
0000
1001
0000
0011
0000
0201
0000
0000
0000
0000
0000
1301
,
0000
0110
0000
0011
0000
0000
0000
0110
0000
1100
0000
1100
0000
0000
0000
0011
,
0000
0000
0000
1010
0000
0011
0000
0210
0000
0000
0000
1001
0000
0000
0000
1310
,
0000
0000
0000
0101
0000
0000
0000
1001
0000
0101
0000
0011
0000
0000
0000
0110
,
0000
0000
0000
1001
0000
1010
0000
1001
0000
2100
0000
0000
0000
0000
0000
3110
,
0000
0101
0000
1100
0000
0000
0000
0011
0000
0101
0000
1001
0000
0000
0000
0101
,
0000
0000
0000
0110
0000
1010
0000
0110
0000
0012
0000
0000
0000
0000
0000
0113
,
0000
1100
0000
0101
0000
0000
0000
0021
0000
0000
0000
1100
0000
0000
0000
0131
,
0000
0000
0000
1100
0000
0110
0000
0012
0000
0000
0000
1010
0000
0000
0000
1203
,
0000
0000
0000
0011
0000
0000
0000
1310
0000
0101
0000
0011
0000
0000
0000
1200
,
0000
0000
0000
1000
0000
0000
0000
0321
0000
0000
0000
0001
0000
0000
0000
1130
,
0000
0110
0000
0011
0000
0000
0000
0011
0000
0110
0000
1100
0000
0000
0000
0021
,
0000
0000
0000
0001
0000
0000
0000
1230
0000
0000
0000
1000
0000
0000
0000
0311
,
0000
0110
0000
1100
0000
0000
0000
1100
0000
0110
0000
0011
0000
0000
0000
2100
,
0000
0000
0000
0100
0000
0000
0000
3012
0000
0000
0000
0010
0000
0000
0000
1103
,
0000
0110
0000
0011
0000
0000
0000
0011
0000
0110
0000
1100
0000
0000
0000
0012
,
0000
0000
0000
0010
0000
0000
0000
2103
0000
0000
0000
0100
0000
0000
0000
3011
,
0000
0110
0000
1100
0000
0000
0000
1100
0000
0110
0000
0011
0000
0000
0000
1100
,
0000
0001
0000
1100
0000
0001
0000
0220
0000
0000
0000
0000
0000
0330
0000
0011
,
0000
1000
0000
0011
0000
0100
0000
0022
0000
0000
0000
0000
0000
0033
0000
1010
,
0000
0100
0000
1010
0000
0001
0000
2200
0000
0000
0000
0000
0000
3300
0000
0110
,
0000
0001
0000
0110
0000
1000
0000
0202
0000
0000
0000
0000
0000
0303
0000
0110
,
0000
1000
0000
0110
0000
0001
0000
2200
0000
0000
0000
0000
0000
3300
0000
0011
,
0000
0100
0000
0011
0000
1000
0000
0220
0000
0000
0000
0000
0000
0330
0000
0110
,
0000
0001
0000
0110
0000
1000
0000
0202
0000
0000
0000
0000
0000
0303
0000
1001
,
0000
0100
0000
1001
0000
0010
0000
2200
0000
0000
0000
0000
0000
3300
0000
0011
,
0000
0110
0000
1100
0000
0110
0000
2002
0000
0000
0000
0000
0000
3003
0000
0101
,
0000
0110
0000
1010
0000
0110
0000
0202
0000
0000
0000
0000
0000
0303
0000
1001
,
0000
1100
0000
0101
0000
0011
0000
0220
0000
0000
0000
0000
0000
0330
0000
0110
,
0000
0011
0000
1001
0000
1100
0000
2020
0000
0000
0000
0000
0000
3030
0000
0110
,
0000
1100
0000
0101
0000
0011
0000
2002
0000
0000
0000
0000
0000
3003
0000
1100
,
0000
0011
0000
1001
0000
0110
0000
0012
0000
0000
0000
0010
0100
1003
0000
1100
,
0000
0101
0000
2002
0000
0000
0000
0000
0000
3003
0000
0011
0000
0101
0000
2002
,
0000
0000
0000
0000
0000
3003
0000
0011
0000
1100
0000
0011
0000
0000
0000
1110
,
0000
0000
0000
1001
0000
0101
0000
0110
0000
2100
0000
0000
0000
0000
0000
3011
,
0000
1001
0000
0101
0000
0000
0000
0110
0000
1001
0000
1010
0000
0000
0000
0111
,
0000
0000
0000
1100
0000
0110
0000
0011
0000
2001
0000
0000
0000
0000
0000
3101
,
0000
1010
0000
1001
0000
0000
0000
0101
0000
0011
0000
0011
0000
0000
0000
2100
,
0000
0000
0000
3101
0000
1001
0000
1020
0000
0000
0000
1100
0000
0000
0000
1031
,
0000
0000
0000
0110
0000
0000
0000
1100
0000
0101
0000
0011
0000
0000
0000
1101
,
0000
0000
0000
0011
0000
0110
0000
1001
0000
2010
0000
0000
0000
0000
0000
3011
,
0000
1001
0000
0101
0000
0000
0000
0110
0000
1010
0000
1001
0000
0000
0000
1011
,
0000
0000
0000
1100
0000
1001
0000
1010
0000
0120
0000
0000
0000
0000
0000
1130
,
0000
0110
0000
0011
0000
0000
0000
0012
0000
0000
0000
1010
0000
0000
0000
0113
,
0000
0000
0000
1010
0000
0101
0000
2001
0000
0000
0000
0110
0000
0000
0000
3102
,
0000
0000
0000
0110
0000
0000
0000
1103
0000
0011
0000
1001
0000
0000
0000
0211
,
0000
0000
0000
0001
0000
0000
0000
2301
0000
0000
0000
0001
0000
0000
0000
3011
,
0000
0110
0000
1100
0000
0000
0000
1100
0000
0110
0000
0011
0000
0000
0000
2010
,
0000
0000
0000
0010
0000
0000
0000
3102
0000
0000
0000
0100
0000
0000
0000
1103
,
0000
0101
0000
1010
0000
0000
0000
0101
0000
1001
0000
0110
0000
0000
0000
1200
,
0000
0000
0000
1000
0000
0000
0000
0321
0000
0000
0000
0001
0000
0000
0000
1031
,
0000
1010
0000
1100
0000
0000
0000
1100
0000
1010
0000
1001
0000
0000
0000
2001
,
0000
0000
0000
0001
0000
0000
0000
3120
0000
0000
0000
0100
0000
0000
0000
1130
,
0000
0110
0000
0011
0000
0000
0000
0011
0000
0110
0000
1100
0000
0000
0000
2000
,
0000
0000
0000
0020
0000
0000
0000
0000
0000
0031
0000
0000
0000
0000
0000
3220
,
0000
0000
0000
0000
0000
0031
0000
0000
0000
0000
0000
0000
0000
0000
0000
0320
,
0000
0000
0000
0200
0000
0000
0000
0000
0000
1300
0000
0000
0000
0000
0000
0232
,
0000
0000
0000
0000
0000
1300
0000
0000
0000
0000
0000
0000
0000
0000
0000
0023
,
0000
0000
0000
2000
0000
0000
0000
0000
0000
3001
0000
0000
0000
0000
0000
2230
,
0000
0000
0000
0000
0000
3002
0000
0000
0000
0000
0000
0023
0000
0000
0000
2300
,
0000
0000
0000
0000
0000
0000
0000
0030
0000
0000
0000
0000
0000
0000
0000
3201
,
0000
0000
0000
0000
0000
0001
0000
1000
0000
0001
0000
1000
0000
0001
0000
0320
,
0000
0000
0000
2000
0000
0000
0000
0000
0000
3100
0000
0000
0000
0000
0000
2032
,
0000
0000
0000
0000
0000
3200
0000
0000
0000
0000
0000
0310
0000
0000
0000
0023
,
0000
0000
0000
0002
0000
0000
0000
0000
0000
0103
0000
0000
0000
0000
0000
0232
,
0000
0000
0000
0000
0000
1003
0000
0000
0000
0000
0000
0000
0000
0000
0000
2300
,
0000
0000
0000
0020
0000
0000
0000
0000
0000
0031
0000
0000
0000
0000
0000
3220
,
0000
0000
0000
0000
0000
0032
0000
0000
0000
0000
0000
2003
0000
0000
0000
0320
,
0000
0000
0000
0000
,
0000
3030
0000
0000
0000
0000
0000
1010
0000
0101
0000
1010
0000
0000
0000
1001
,
0000
1001
0000
1100
0000
0110
0000
1001
0000
0000
0000
0011
0000
0000
0000
0110
,
0000
0011
0000
1010
0000
0000
0000
0110
0000
1100
0000
0101
0000
0000
0000
1001
,
0000
1100
0000
0110
0000
0011
0000
1001
0000
0000
0000
0110
0000
0000
0000
1001
,
0000
0110
0000
0011
0000
0000
0000
1001
0000
0110
0000
1100
0000
0000
0000
0101
,
0000
0101
0000
0011
0000
0110
0000
1100
0000
0000
0000
0011
0000
0000
0000
0022
,
0000
0000
0000
0000
0000
0000
0000
1133
0000
0011
0000
1100
0000
0000
0000
1011
,
0000
0000
0000
1100
0000
1101
0000
1100
0000
1021
0000
0000
0000
0000
0000
0130
,
0000
1011
0000
0011
0000
0000
0000
1010
0000
1110
0000
1001
0000
0000
0000
0111
,
0000
0000
0000
0011
0000
1011
0000
0011
0000
1102
0000
0000
0000
0000
0000
1003
,
0000
1110
0000
0011
0000
0000
0000
0110
0000
1101
0000
1100
0000
0000
0000
0111
,
0000
0000
0000
1010
0000
1011
0000
1210
0000
0000
0000
1010
0000
0000
0000
1301
,
0000
0000
0000
0111
0000
0000
0000
1001
0000
0111
0000
0011
0000
0000
0000
1110
,
0000
0000
0000
1001
0000
1110
0000
1001
0000
1201
0000
0000
0000
0000
0000
0310
,
0000
0111
0000
1100
0000
0000
0000
0011
0000
0111
0000
1001
0000
0000
0000
1110
,
0000
0000
0000
0110
0000
1110
0000
0110
0000
1021
0000
0000
0000
0000
0000
0130
,
0000
1101
0000
0101
0000
0000
0000
0121
0000
0000
0000
1100
0000
0000
0000
1031
,
0000
0000
0000
1100
0000
0111
0000
0211
0000
0000
0000
1001
0000
0000
0000
1310
,
0000
0000
0000
0111
0000
0000
0000
1100
0000
0111
0000
0011
0000
0000
0000
1201
,
0000
0001
0000
1010
0000
0010
0000
1321
0000
1000
0000
0101
0000
0001
0000
1130
,
0000
0110
0000
0011
0000
0000
0000
0011
0000
0110
0000
1100
0000
0000
0000
1021
,
0000
1000
0000
0101
0000
0001
0000
1231
0000
0010
0000
1010
0000
1000
0000
0311
,
0000
0111
0000
1100
0000
0000
0000
1100
0000
1110
0000
0011
0000
0000
0000
2110
,
0000
0100
0000
0101
0000
0010
0000
3112
0000
0100
0000
1010
0000
1000
0000
1103
,
0000
1110
0000
0011
0000
0000
0000
0011
0000
1110
0000
1100
0000
0000
0000
0112
,
0000
0100
0000
1010
0000
0100
0000
2113
0000
0001
0000
0101
0000
0010
0000
3011
,
0000
1110
0000
1100
0000
0000
0000
1100
0000
0111
0000
0011
0000
0000
0000
2112
,
0000
0010
0000
0110
0000
0100
0000
3113
0000
0110
0000
0110
0000
0110
0000
2220
,
0000
0000
0000
0000
0000
3330
0000
0222
0000
0000
0000
0000
0000
0333
0000
0000
;

//---------------dance-single - ----------------
#NOTES:
     dance-single:
     :
     Medium:
     1:
     0.000,0.000,0.000,0.000,0.000,0.000,0.000,0.000,0.000,0.000:
0000
0000
0000
0000
;
